FILE "2017-07-07_19-09_Cloud_Zephyr.mp3" MP3 TRACK 01 AUDIO TITLE "" PERFORMER "" INDEX 01 00:00:00 TRACK 02 AUDIO TITLE "" PERFORMER "" INDEX 01 00:00:00 TRACK 03 AUDIO TITLE "" PERFORMER "" INDEX 01 05:32:00 TRACK 04 AUDIO TITLE "" PERFORMER "" INDEX 01 11:20:00 TRACK 05 AUDIO TITLE "" PERFORMER "" INDEX 01 13:22:00 TRACK 06 AUDIO TITLE "" PERFORMER "" INDEX 01 21:31:00 TRACK 07 AUDIO TITLE "" PERFORMER "" INDEX 01 26:30:00 TRACK 08 AUDIO TITLE "" PERFORMER "" INDEX 01 30:53:00 TRACK 09 AUDIO TITLE "" PERFORMER "" INDEX 01 38:22:00 TRACK 10 AUDIO TITLE "" PERFORMER "" INDEX 01 41:32:00 TRACK 11 AUDIO TITLE "" PERFORMER "" INDEX 01 49:08:00 TRACK 12 AUDIO TITLE "" PERFORMER "" INDEX 01 52:56:00