FILE "2017-07-07_21-00_Lycan.mp3" MP3 TRACK 01 AUDIO TITLE "" PERFORMER "" INDEX 01 00:00:00 TRACK 02 AUDIO TITLE "" PERFORMER "" INDEX 01 00:02:00 TRACK 03 AUDIO TITLE "" PERFORMER "" INDEX 01 00:38:00 TRACK 04 AUDIO TITLE "" PERFORMER "" INDEX 01 02:28:00 TRACK 05 AUDIO TITLE "" PERFORMER "" INDEX 01 06:31:00 TRACK 06 AUDIO TITLE "" PERFORMER "" INDEX 01 07:42:00 TRACK 07 AUDIO TITLE "" PERFORMER "" INDEX 01 12:23:00 TRACK 08 AUDIO TITLE "" PERFORMER "" INDEX 01 16:09:00 TRACK 09 AUDIO TITLE "" PERFORMER "" INDEX 01 17:26:00 TRACK 10 AUDIO TITLE "" PERFORMER "" INDEX 01 22:03:00 TRACK 11 AUDIO TITLE "" PERFORMER "" INDEX 01 25:24:00 TRACK 12 AUDIO TITLE "" PERFORMER "" INDEX 01 26:48:00 TRACK 13 AUDIO TITLE "" PERFORMER "" INDEX 01 32:09:00 TRACK 14 AUDIO TITLE "" PERFORMER "" INDEX 01 41:19:00 TRACK 15 AUDIO TITLE "" PERFORMER "" INDEX 01 42:29:00 TRACK 16 AUDIO TITLE "" PERFORMER "" INDEX 01 47:23:00 TRACK 17 AUDIO TITLE "" PERFORMER "" INDEX 01 51:49:00 TRACK 18 AUDIO TITLE "" PERFORMER "" INDEX 01 52:40:00 TRACK 19 AUDIO TITLE "" PERFORMER "" INDEX 01 56:05:00 TRACK 20 AUDIO TITLE "" PERFORMER "" INDEX 01 57:29:00 TRACK 21 AUDIO TITLE "" PERFORMER "" INDEX 01 61:26:00 TRACK 22 AUDIO TITLE "" PERFORMER "" INDEX 01 65:55:00 TRACK 23 AUDIO TITLE "" PERFORMER "" INDEX 01 67:09:00 TRACK 24 AUDIO TITLE "" PERFORMER "" INDEX 01 70:46:00 TRACK 25 AUDIO TITLE "" PERFORMER "" INDEX 01 75:08:00 TRACK 26 AUDIO TITLE "" PERFORMER "" INDEX 01 76:58:00 TRACK 27 AUDIO TITLE "" PERFORMER "" INDEX 01 79:42:00 TRACK 28 AUDIO TITLE "" PERFORMER "" INDEX 01 88:45:00 TRACK 29 AUDIO TITLE "" PERFORMER "" INDEX 01 90:11:00 TRACK 30 AUDIO TITLE "" PERFORMER "" INDEX 01 94:54:00 TRACK 31 AUDIO TITLE "" PERFORMER "" INDEX 01 98:40:00 TRACK 32 AUDIO TITLE "" PERFORMER "" INDEX 01 99:51:00 TRACK 33 AUDIO TITLE "" PERFORMER "" INDEX 01 107:05:00 TRACK 34 AUDIO TITLE "" PERFORMER "" INDEX 01 109:12:00 TRACK 35 AUDIO TITLE "" PERFORMER "" INDEX 01 114:08:00 TRACK 36 AUDIO TITLE "" PERFORMER "" INDEX 01 119:38:00 TRACK 37 AUDIO TITLE "" PERFORMER "" INDEX 01 120:13:00 TRACK 38 AUDIO TITLE "" PERFORMER "" INDEX 01 120:22:00