FILE "2017-07-14_19-11_Cloud_Zephyr.mp3" MP3 TRACK 01 AUDIO TITLE "" PERFORMER "" INDEX 01 00:00:00 TRACK 02 AUDIO TITLE "" PERFORMER "" INDEX 01 01:24:00 TRACK 03 AUDIO TITLE "" PERFORMER "" INDEX 01 07:28:00 TRACK 04 AUDIO TITLE "" PERFORMER "" INDEX 01 10:57:00 TRACK 05 AUDIO TITLE "" PERFORMER "" INDEX 01 15:16:00 TRACK 06 AUDIO TITLE "" PERFORMER "" INDEX 01 19:12:00 TRACK 07 AUDIO TITLE "" PERFORMER "" INDEX 01 23:35:00 TRACK 08 AUDIO TITLE "" PERFORMER "" INDEX 01 28:20:00 TRACK 09 AUDIO TITLE "" PERFORMER "" INDEX 01 29:15:00 TRACK 10 AUDIO TITLE "" PERFORMER "" INDEX 01 29:45:00 TRACK 11 AUDIO TITLE "" PERFORMER "" INDEX 01 32:37:00 TRACK 12 AUDIO TITLE "" PERFORMER "" INDEX 01 35:15:00 TRACK 13 AUDIO TITLE "" PERFORMER "" INDEX 01 40:03:00 TRACK 14 AUDIO TITLE "" PERFORMER "" INDEX 01 45:32:00 TRACK 15 AUDIO TITLE "" PERFORMER "" INDEX 01 49:33:00 TRACK 16 AUDIO TITLE "" PERFORMER "" INDEX 01 54:12:00 TRACK 17 AUDIO TITLE "" PERFORMER "" INDEX 01 58:56:00 TRACK 18 AUDIO TITLE "" PERFORMER "" INDEX 01 64:02:00 TRACK 19 AUDIO TITLE "" PERFORMER "" INDEX 01 69:41:00 TRACK 20 AUDIO TITLE "" PERFORMER "" INDEX 01 70:37:00 TRACK 21 AUDIO TITLE "" PERFORMER "" INDEX 01 78:52:00 TRACK 22 AUDIO TITLE "" PERFORMER "" INDEX 01 85:28:00 TRACK 23 AUDIO TITLE "" PERFORMER "" INDEX 01 91:15:00 TRACK 24 AUDIO TITLE "" PERFORMER "" INDEX 01 95:24:00 TRACK 25 AUDIO TITLE "" PERFORMER "" INDEX 01 98:23:00 TRACK 26 AUDIO TITLE "" PERFORMER "" INDEX 01 103:25:00 TRACK 27 AUDIO TITLE "" PERFORMER "" INDEX 01 109:15:00 TRACK 28 AUDIO TITLE "" PERFORMER "" INDEX 01 110:49:00