FILE "2017-07-15_04-11_BoltTheSuper-Pony.mp3" MP3 TRACK 01 AUDIO TITLE "" PERFORMER "" INDEX 01 00:00:00 TRACK 02 AUDIO TITLE "" PERFORMER "" INDEX 01 00:37:00 TRACK 03 AUDIO TITLE "" PERFORMER "" INDEX 01 00:41:00 TRACK 04 AUDIO TITLE "" PERFORMER "" INDEX 01 05:33:00 TRACK 05 AUDIO TITLE "" PERFORMER "" INDEX 01 07:42:00 TRACK 06 AUDIO TITLE "" PERFORMER "" INDEX 01 12:04:00 TRACK 07 AUDIO TITLE "" PERFORMER "" INDEX 01 16:21:00 TRACK 08 AUDIO TITLE "" PERFORMER "" INDEX 01 20:31:00 TRACK 09 AUDIO TITLE "" PERFORMER "" INDEX 01 25:10:00 TRACK 10 AUDIO TITLE "" PERFORMER "" INDEX 01 28:29:00 TRACK 11 AUDIO TITLE "" PERFORMER "" INDEX 01 32:05:00 TRACK 12 AUDIO TITLE "" PERFORMER "" INDEX 01 34:48:00 TRACK 13 AUDIO TITLE "" PERFORMER "" INDEX 01 39:29:00 TRACK 14 AUDIO TITLE "" PERFORMER "" INDEX 01 42:23:00 TRACK 15 AUDIO TITLE "" PERFORMER "" INDEX 01 46:14:00 TRACK 16 AUDIO TITLE "" PERFORMER "" INDEX 01 49:33:00 TRACK 17 AUDIO TITLE "" PERFORMER "" INDEX 01 54:10:00 TRACK 18 AUDIO TITLE "" PERFORMER "" INDEX 01 58:48:00 TRACK 19 AUDIO TITLE "" PERFORMER "" INDEX 01 63:01:00 TRACK 20 AUDIO TITLE "" PERFORMER "" INDEX 01 66:23:00 TRACK 21 AUDIO TITLE "" PERFORMER "" INDEX 01 70:10:00 TRACK 22 AUDIO TITLE "" PERFORMER "" INDEX 01 73:45:00 TRACK 23 AUDIO TITLE "" PERFORMER "" INDEX 01 79:43:00 TRACK 24 AUDIO TITLE "" PERFORMER "" INDEX 01 84:29:00 TRACK 25 AUDIO TITLE "" PERFORMER "" INDEX 01 86:58:00 TRACK 26 AUDIO TITLE "" PERFORMER "" INDEX 01 90:57:00 TRACK 27 AUDIO TITLE "" PERFORMER "" INDEX 01 94:31:00 TRACK 28 AUDIO TITLE "" PERFORMER "" INDEX 01 98:29:00 TRACK 29 AUDIO TITLE "" PERFORMER "" INDEX 01 104:09:00 TRACK 30 AUDIO TITLE "" PERFORMER "" INDEX 01 109:24:00 TRACK 31 AUDIO TITLE "" PERFORMER "" INDEX 01 113:37:00 TRACK 32 AUDIO TITLE "" PERFORMER "" INDEX 01 117:19:00 TRACK 33 AUDIO TITLE "" PERFORMER "" INDEX 01 119:23:00 TRACK 34 AUDIO TITLE "" PERFORMER "" INDEX 01 123:19:00 TRACK 35 AUDIO TITLE "" PERFORMER "" INDEX 01 126:47:00 TRACK 36 AUDIO TITLE "" PERFORMER "" INDEX 01 130:51:00 TRACK 37 AUDIO TITLE "" PERFORMER "" INDEX 01 136:06:00 TRACK 38 AUDIO TITLE "" PERFORMER "" INDEX 01 140:48:00 TRACK 39 AUDIO TITLE "" PERFORMER "" INDEX 01 146:39:00 TRACK 40 AUDIO TITLE "" PERFORMER "" INDEX 01 146:46:00 TRACK 41 AUDIO TITLE "" PERFORMER "" INDEX 01 152:12:00 TRACK 42 AUDIO TITLE "" PERFORMER "" INDEX 01 156:36:00 TRACK 43 AUDIO TITLE "" PERFORMER "" INDEX 01 160:09:00 TRACK 44 AUDIO TITLE "" PERFORMER "" INDEX 01 165:30:00 TRACK 45 AUDIO TITLE "" PERFORMER "" INDEX 01 169:06:00 TRACK 46 AUDIO TITLE "" PERFORMER "" INDEX 01 173:34:00 TRACK 47 AUDIO TITLE "" PERFORMER "" INDEX 01 178:20:00 TRACK 48 AUDIO TITLE "" PERFORMER "" INDEX 01 184:14:00 TRACK 49 AUDIO TITLE "" PERFORMER "" INDEX 01 188:17:00 TRACK 50 AUDIO TITLE "" PERFORMER "" INDEX 01 194:12:00 TRACK 51 AUDIO TITLE "" PERFORMER "" INDEX 01 199:05:00 TRACK 52 AUDIO TITLE "" PERFORMER "" INDEX 01 203:42:00 TRACK 53 AUDIO TITLE "" PERFORMER "" INDEX 01 208:01:00 TRACK 54 AUDIO TITLE "" PERFORMER "" INDEX 01 211:10:00 TRACK 55 AUDIO TITLE "" PERFORMER "" INDEX 01 214:17:00 TRACK 56 AUDIO TITLE "" PERFORMER "" INDEX 01 218:55:00 TRACK 57 AUDIO TITLE "" PERFORMER "" INDEX 01 221:45:00 TRACK 58 AUDIO TITLE "" PERFORMER "" INDEX 01 223:53:00 TRACK 59 AUDIO TITLE "" PERFORMER "" INDEX 01 227:07:00 TRACK 60 AUDIO TITLE "" PERFORMER "" INDEX 01 231:26:00 TRACK 61 AUDIO TITLE "" PERFORMER "" INDEX 01 231:37:00 TRACK 62 AUDIO TITLE "" PERFORMER "" INDEX 01 236:33:00 TRACK 63 AUDIO TITLE "" PERFORMER "" INDEX 01 239:53:00 TRACK 64 AUDIO TITLE "" PERFORMER "" INDEX 01 243:16:00 TRACK 65 AUDIO TITLE "" PERFORMER "" INDEX 01 247:00:00 TRACK 66 AUDIO TITLE "" PERFORMER "" INDEX 01 251:10:00 TRACK 67 AUDIO TITLE "" PERFORMER "" INDEX 01 253:55:00 TRACK 68 AUDIO TITLE "" PERFORMER "" INDEX 01 258:17:00 TRACK 69 AUDIO TITLE "" PERFORMER "" INDEX 01 260:23:00 TRACK 70 AUDIO TITLE "" PERFORMER "" INDEX 01 263:59:00 TRACK 71 AUDIO TITLE "" PERFORMER "" INDEX 01 267:32:00 TRACK 72 AUDIO TITLE "" PERFORMER "" INDEX 01 267:39:00 TRACK 73 AUDIO TITLE "" PERFORMER "" INDEX 01 270:53:00 TRACK 74 AUDIO TITLE "" PERFORMER "" INDEX 01 274:53:00 TRACK 75 AUDIO TITLE "" PERFORMER "" INDEX 01 277:37:00 TRACK 76 AUDIO TITLE "" PERFORMER "" INDEX 01 281:50:00 TRACK 77 AUDIO TITLE "" PERFORMER "" INDEX 01 286:02:00 TRACK 78 AUDIO TITLE "" PERFORMER "" INDEX 01 292:15:00 TRACK 79 AUDIO TITLE "" PERFORMER "" INDEX 01 296:25:00 TRACK 80 AUDIO TITLE "" PERFORMER "" INDEX 01 301:05:00 TRACK 81 AUDIO TITLE "" PERFORMER "" INDEX 01 305:25:00 TRACK 82 AUDIO TITLE "" PERFORMER "" INDEX 01 309:14:00 TRACK 83 AUDIO TITLE "" PERFORMER "" INDEX 01 313:10:00 TRACK 84 AUDIO TITLE "" PERFORMER "" INDEX 01 318:31:00 TRACK 85 AUDIO TITLE "" PERFORMER "" INDEX 01 322:30:00 TRACK 86 AUDIO TITLE "" PERFORMER "" INDEX 01 326:19:00 TRACK 87 AUDIO TITLE "" PERFORMER "" INDEX 01 328:48:00 TRACK 88 AUDIO TITLE "" PERFORMER "" INDEX 01 332:16:00 TRACK 89 AUDIO TITLE "" PERFORMER "" INDEX 01 336:09:00 TRACK 90 AUDIO TITLE "" PERFORMER "" INDEX 01 339:58:00 TRACK 91 AUDIO TITLE "" PERFORMER "" INDEX 01 344:44:00 TRACK 92 AUDIO TITLE "" PERFORMER "" INDEX 01 349:17:00 TRACK 93 AUDIO TITLE "" PERFORMER "" INDEX 01 353:08:00 TRACK 94 AUDIO TITLE "" PERFORMER "" INDEX 01 357:14:00