FILE "2017-07-18_00-00_additivesubtractive.mp3" MP3 TRACK 01 AUDIO TITLE "" PERFORMER "" INDEX 01 00:00:00 TRACK 02 AUDIO TITLE "" PERFORMER "" INDEX 01 00:11:00 TRACK 03 AUDIO TITLE "" PERFORMER "" INDEX 01 02:12:00