FILE "2017-07-18_03-00_AWal.mp3" MP3 TRACK 01 AUDIO TITLE "" PERFORMER "" INDEX 01 00:00:00 TRACK 02 AUDIO TITLE "" PERFORMER "" INDEX 01 00:07:00 TRACK 03 AUDIO TITLE "" PERFORMER "" INDEX 01 04:32:00 TRACK 04 AUDIO TITLE "" PERFORMER "" INDEX 01 07:16:00 TRACK 05 AUDIO TITLE "" PERFORMER "" INDEX 01 11:20:00 TRACK 06 AUDIO TITLE "" PERFORMER "" INDEX 01 14:25:00 TRACK 07 AUDIO TITLE "" PERFORMER "" INDEX 01 17:21:00 TRACK 08 AUDIO TITLE "" PERFORMER "" INDEX 01 21:53:00 TRACK 09 AUDIO TITLE "" PERFORMER "" INDEX 01 26:00:00 TRACK 10 AUDIO TITLE "" PERFORMER "" INDEX 01 30:38:00 TRACK 11 AUDIO TITLE "" PERFORMER "" INDEX 01 33:43:00 TRACK 12 AUDIO TITLE "" PERFORMER "" INDEX 01 38:23:00 TRACK 13 AUDIO TITLE "" PERFORMER "" INDEX 01 43:02:00 TRACK 14 AUDIO TITLE "" PERFORMER "" INDEX 01 48:34:00 TRACK 15 AUDIO TITLE "" PERFORMER "" INDEX 01 51:25:00 TRACK 16 AUDIO TITLE "" PERFORMER "" INDEX 01 56:28:00 TRACK 17 AUDIO TITLE "" PERFORMER "" INDEX 01 60:46:00 TRACK 18 AUDIO TITLE "" PERFORMER "" INDEX 01 64:16:00 TRACK 19 AUDIO TITLE "" PERFORMER "" INDEX 01 69:35:00 TRACK 20 AUDIO TITLE "" PERFORMER "" INDEX 01 73:24:00 TRACK 21 AUDIO TITLE "" PERFORMER "" INDEX 01 78:39:00 TRACK 22 AUDIO TITLE "" PERFORMER "" INDEX 01 81:27:00 TRACK 23 AUDIO TITLE "" PERFORMER "" INDEX 01 84:00:00 TRACK 24 AUDIO TITLE "" PERFORMER "" INDEX 01 88:36:00 TRACK 25 AUDIO TITLE "" PERFORMER "" INDEX 01 91:53:00 TRACK 26 AUDIO TITLE "" PERFORMER "" INDEX 01 95:42:00 TRACK 27 AUDIO TITLE "" PERFORMER "" INDEX 01 99:46:00 TRACK 28 AUDIO TITLE "" PERFORMER "" INDEX 01 102:18:00 TRACK 29 AUDIO TITLE "" PERFORMER "" INDEX 01 107:40:00 TRACK 30 AUDIO TITLE "" PERFORMER "" INDEX 01 113:34:00 TRACK 31 AUDIO TITLE "" PERFORMER "" INDEX 01 116:37:00