FILE "2017-07-20_04-02_Midli.mp3" MP3 TRACK 01 AUDIO TITLE "" PERFORMER "" INDEX 01 00:00:00 TRACK 02 AUDIO TITLE "" PERFORMER "" INDEX 01 00:10:00 TRACK 03 AUDIO TITLE "" PERFORMER "" INDEX 01 02:43:00 TRACK 04 AUDIO TITLE "" PERFORMER "" INDEX 01 06:53:00 TRACK 05 AUDIO TITLE "" PERFORMER "" INDEX 01 10:58:00 TRACK 06 AUDIO TITLE "" PERFORMER "" INDEX 01 15:39:00 TRACK 07 AUDIO TITLE "" PERFORMER "" INDEX 01 19:15:00 TRACK 08 AUDIO TITLE "" PERFORMER "" INDEX 01 22:44:00 TRACK 09 AUDIO TITLE "" PERFORMER "" INDEX 01 25:01:00 TRACK 10 AUDIO TITLE "" PERFORMER "" INDEX 01 28:16:00 TRACK 11 AUDIO TITLE "" PERFORMER "" INDEX 01 31:18:00 TRACK 12 AUDIO TITLE "" PERFORMER "" INDEX 01 37:30:00 TRACK 13 AUDIO TITLE "" PERFORMER "" INDEX 01 39:58:00 TRACK 14 AUDIO TITLE "" PERFORMER "" INDEX 01 44:37:00 TRACK 15 AUDIO TITLE "" PERFORMER "" INDEX 01 47:20:00 TRACK 16 AUDIO TITLE "" PERFORMER "" INDEX 01 50:53:00 TRACK 17 AUDIO TITLE "" PERFORMER "" INDEX 01 52:56:00 TRACK 18 AUDIO TITLE "" PERFORMER "" INDEX 01 59:29:00 TRACK 19 AUDIO TITLE "" PERFORMER "" INDEX 01 61:35:00 TRACK 20 AUDIO TITLE "" PERFORMER "" INDEX 01 64:25:00 TRACK 21 AUDIO TITLE "" PERFORMER "" INDEX 01 68:23:00 TRACK 22 AUDIO TITLE "" PERFORMER "" INDEX 01 74:32:00 TRACK 23 AUDIO TITLE "" PERFORMER "" INDEX 01 77:18:00 TRACK 24 AUDIO TITLE "" PERFORMER "" INDEX 01 82:20:00 TRACK 25 AUDIO TITLE "" PERFORMER "" INDEX 01 85:47:00 TRACK 26 AUDIO TITLE "" PERFORMER "" INDEX 01 88:37:00 TRACK 27 AUDIO TITLE "" PERFORMER "" INDEX 01 93:17:00 TRACK 28 AUDIO TITLE "" PERFORMER "" INDEX 01 96:55:00 TRACK 29 AUDIO TITLE "" PERFORMER "" INDEX 01 101:03:00 TRACK 30 AUDIO TITLE "" PERFORMER "" INDEX 01 106:59:00 TRACK 31 AUDIO TITLE "" PERFORMER "" INDEX 01 112:08:00 TRACK 32 AUDIO TITLE "" PERFORMER "" INDEX 01 115:06:00 TRACK 33 AUDIO TITLE "" PERFORMER "" INDEX 01 118:22:00 TRACK 34 AUDIO TITLE "" PERFORMER "" INDEX 01 123:39:00 TRACK 35 AUDIO TITLE "" PERFORMER "" INDEX 01 128:23:00 TRACK 36 AUDIO TITLE "" PERFORMER "" INDEX 01 130:46:00 TRACK 37 AUDIO TITLE "" PERFORMER "" INDEX 01 134:20:00 TRACK 38 AUDIO TITLE "" PERFORMER "" INDEX 01 136:29:00 TRACK 39 AUDIO TITLE "" PERFORMER "" INDEX 01 139:46:00 TRACK 40 AUDIO TITLE "" PERFORMER "" INDEX 01 142:45:00 TRACK 41 AUDIO TITLE "" PERFORMER "" INDEX 01 144:15:00 TRACK 42 AUDIO TITLE "" PERFORMER "" INDEX 01 150:16:00 TRACK 43 AUDIO TITLE "" PERFORMER "" INDEX 01 153:11:00 TRACK 44 AUDIO TITLE "" PERFORMER "" INDEX 01 159:36:00 TRACK 45 AUDIO TITLE "" PERFORMER "" INDEX 01 163:00:00 TRACK 46 AUDIO TITLE "" PERFORMER "" INDEX 01 168:36:00 TRACK 47 AUDIO TITLE "" PERFORMER "" INDEX 01 169:48:00 TRACK 48 AUDIO TITLE "" PERFORMER "" INDEX 01 173:54:00 TRACK 49 AUDIO TITLE "" PERFORMER "" INDEX 01 179:21:00 TRACK 50 AUDIO TITLE "" PERFORMER "" INDEX 01 181:20:00 TRACK 51 AUDIO TITLE "" PERFORMER "" INDEX 01 184:02:00 TRACK 52 AUDIO TITLE "" PERFORMER "" INDEX 01 190:09:00 TRACK 53 AUDIO TITLE "" PERFORMER "" INDEX 01 193:07:00 TRACK 54 AUDIO TITLE "" PERFORMER "" INDEX 01 198:15:00 TRACK 55 AUDIO TITLE "" PERFORMER "" INDEX 01 199:52:00 TRACK 56 AUDIO TITLE "" PERFORMER "" INDEX 01 202:29:00 TRACK 57 AUDIO TITLE "" PERFORMER "" INDEX 01 208:37:00 TRACK 58 AUDIO TITLE "" PERFORMER "" INDEX 01 213:45:00 TRACK 59 AUDIO TITLE "" PERFORMER "" INDEX 01 218:36:00 TRACK 60 AUDIO TITLE "" PERFORMER "" INDEX 01 221:58:00 TRACK 61 AUDIO TITLE "" PERFORMER "" INDEX 01 228:44:00 TRACK 62 AUDIO TITLE "" PERFORMER "" INDEX 01 230:03:00 TRACK 63 AUDIO TITLE "" PERFORMER "" INDEX 01 238:34:00