FILE "2017-07-20_23-05_willow.mp3" MP3 TRACK 01 AUDIO TITLE "" PERFORMER "" INDEX 01 00:00:00 TRACK 02 AUDIO TITLE "" PERFORMER "" INDEX 01 00:14:00 TRACK 03 AUDIO TITLE "" PERFORMER "" INDEX 01 07:26:00 TRACK 04 AUDIO TITLE "" PERFORMER "" INDEX 01 66:49:00 TRACK 05 AUDIO TITLE "" PERFORMER "" INDEX 01 114:19:00 TRACK 06 AUDIO TITLE "" PERFORMER "" INDEX 01 115:35:00 TRACK 07 AUDIO TITLE "" PERFORMER "" INDEX 01 118:58:00 TRACK 08 AUDIO TITLE "" PERFORMER "" INDEX 01 119:05:00 TRACK 09 AUDIO TITLE "" PERFORMER "" INDEX 01 124:23:00 TRACK 10 AUDIO TITLE "" PERFORMER "" INDEX 01 127:21:00 TRACK 11 AUDIO TITLE "" PERFORMER "" INDEX 01 133:50:00 TRACK 12 AUDIO TITLE "" PERFORMER "" INDEX 01 137:50:00 TRACK 13 AUDIO TITLE "" PERFORMER "" INDEX 01 140:31:00 TRACK 14 AUDIO TITLE "" PERFORMER "" INDEX 01 146:14:00 TRACK 15 AUDIO TITLE "" PERFORMER "" INDEX 01 148:54:00 TRACK 16 AUDIO TITLE "" PERFORMER "" INDEX 01 154:53:00 TRACK 17 AUDIO TITLE "" PERFORMER "" INDEX 01 159:30:00 TRACK 18 AUDIO TITLE "" PERFORMER "" INDEX 01 163:39:00 TRACK 19 AUDIO TITLE "" PERFORMER "" INDEX 01 163:48:00 TRACK 20 AUDIO TITLE "" PERFORMER "" INDEX 01 168:05:00 TRACK 21 AUDIO TITLE "" PERFORMER "" INDEX 01 173:50:00 TRACK 22 AUDIO TITLE "" PERFORMER "" INDEX 01 179:19:00 TRACK 23 AUDIO TITLE "" PERFORMER "" INDEX 01 185:01:00 TRACK 24 AUDIO TITLE "" PERFORMER "" INDEX 01 190:46:00 TRACK 25 AUDIO TITLE "" PERFORMER "" INDEX 01 194:38:00 TRACK 26 AUDIO TITLE "" PERFORMER "" INDEX 01 198:28:00 TRACK 27 AUDIO TITLE "" PERFORMER "" INDEX 01 202:30:00 TRACK 28 AUDIO TITLE "" PERFORMER "" INDEX 01 206:28:00 TRACK 29 AUDIO TITLE "" PERFORMER "" INDEX 01 210:52:00 TRACK 30 AUDIO TITLE "" PERFORMER "" INDEX 01 215:01:00 TRACK 31 AUDIO TITLE "" PERFORMER "" INDEX 01 218:09:00 TRACK 32 AUDIO TITLE "" PERFORMER "" INDEX 01 221:58:00 TRACK 33 AUDIO TITLE "" PERFORMER "" INDEX 01 225:46:00 TRACK 34 AUDIO TITLE "" PERFORMER "" INDEX 01 229:53:00 TRACK 35 AUDIO TITLE "" PERFORMER "" INDEX 01 237:00:00 TRACK 36 AUDIO TITLE "" PERFORMER "" INDEX 01 240:06:00 TRACK 37 AUDIO TITLE "" PERFORMER "" INDEX 01 244:31:00 TRACK 38 AUDIO TITLE "" PERFORMER "" INDEX 01 248:49:00 TRACK 39 AUDIO TITLE "" PERFORMER "" INDEX 01 254:48:00 TRACK 40 AUDIO TITLE "" PERFORMER "" INDEX 01 260:51:00 TRACK 41 AUDIO TITLE "" PERFORMER "" INDEX 01 265:27:00 TRACK 42 AUDIO TITLE "" PERFORMER "" INDEX 01 269:33:00 TRACK 43 AUDIO TITLE "" PERFORMER "" INDEX 01 273:52:00 TRACK 44 AUDIO TITLE "" PERFORMER "" INDEX 01 277:28:00 TRACK 45 AUDIO TITLE "" PERFORMER "" INDEX 01 281:38:00 TRACK 46 AUDIO TITLE "" PERFORMER "" INDEX 01 288:17:00 TRACK 47 AUDIO TITLE "" PERFORMER "" INDEX 01 292:13:00 TRACK 48 AUDIO TITLE "" PERFORMER "" INDEX 01 296:19:00 TRACK 49 AUDIO TITLE "" PERFORMER "" INDEX 01 303:29:00 TRACK 50 AUDIO TITLE "" PERFORMER "" INDEX 01 307:33:00 TRACK 51 AUDIO TITLE "" PERFORMER "" INDEX 01 311:59:00 TRACK 52 AUDIO TITLE "" PERFORMER "" INDEX 01 317:24:00 TRACK 53 AUDIO TITLE "" PERFORMER "" INDEX 01 323:28:00 TRACK 54 AUDIO TITLE "" PERFORMER "" INDEX 01 328:03:00 TRACK 55 AUDIO TITLE "" PERFORMER "" INDEX 01 331:57:00 TRACK 56 AUDIO TITLE "" PERFORMER "" INDEX 01 335:24:00 TRACK 57 AUDIO TITLE "" PERFORMER "" INDEX 01 341:11:00 TRACK 58 AUDIO TITLE "" PERFORMER "" INDEX 01 346:16:00 TRACK 59 AUDIO TITLE "" PERFORMER "" INDEX 01 352:06:00 TRACK 60 AUDIO TITLE "" PERFORMER "" INDEX 01 358:20:00