FILE "2017-07-21_21-00_Lycan.mp3" MP3 TRACK 01 AUDIO TITLE "" PERFORMER "" INDEX 01 00:00:00 TRACK 02 AUDIO TITLE "" PERFORMER "" INDEX 01 00:16:00 TRACK 03 AUDIO TITLE "" PERFORMER "" INDEX 01 02:48:00 TRACK 04 AUDIO TITLE "" PERFORMER "" INDEX 01 03:04:00 TRACK 05 AUDIO TITLE "" PERFORMER "" INDEX 01 07:57:00 TRACK 06 AUDIO TITLE "" PERFORMER "" INDEX 01 10:31:00 TRACK 07 AUDIO TITLE "" PERFORMER "" INDEX 01 14:07:00 TRACK 08 AUDIO TITLE "" PERFORMER "" INDEX 01 17:37:00 TRACK 09 AUDIO TITLE "" PERFORMER "" INDEX 01 19:27:00 TRACK 10 AUDIO TITLE "" PERFORMER "" INDEX 01 19:39:00 TRACK 11 AUDIO TITLE "" PERFORMER "" INDEX 01 23:05:00 TRACK 12 AUDIO TITLE "" PERFORMER "" INDEX 01 26:27:00 TRACK 13 AUDIO TITLE "" PERFORMER "" INDEX 01 27:54:00 TRACK 14 AUDIO TITLE "" PERFORMER "" INDEX 01 28:23:00 TRACK 15 AUDIO TITLE "" PERFORMER "" INDEX 01 33:30:00 TRACK 16 AUDIO TITLE "" PERFORMER "" INDEX 01 37:58:00 TRACK 17 AUDIO TITLE "" PERFORMER "" INDEX 01 39:48:00 TRACK 18 AUDIO TITLE "" PERFORMER "" INDEX 01 42:52:00 TRACK 19 AUDIO TITLE "" PERFORMER "" INDEX 01 46:51:00 TRACK 20 AUDIO TITLE "" PERFORMER "" INDEX 01 48:28:00 TRACK 21 AUDIO TITLE "" PERFORMER "" INDEX 01 48:40:00 TRACK 22 AUDIO TITLE "" PERFORMER "" INDEX 01 52:03:00 TRACK 23 AUDIO TITLE "" PERFORMER "" INDEX 01 57:20:00 TRACK 24 AUDIO TITLE "" PERFORMER "" INDEX 01 58:57:00 TRACK 25 AUDIO TITLE "" PERFORMER "" INDEX 01 59:09:00 TRACK 26 AUDIO TITLE "" PERFORMER "" INDEX 01 64:28:00 TRACK 27 AUDIO TITLE "" PERFORMER "" INDEX 01 69:04:00 TRACK 28 AUDIO TITLE "" PERFORMER "" INDEX 01 71:07:00 TRACK 29 AUDIO TITLE "" PERFORMER "" INDEX 01 74:18:00 TRACK 30 AUDIO TITLE "" PERFORMER "" INDEX 01 74:39:00 TRACK 31 AUDIO TITLE "" PERFORMER "" INDEX 01 78:17:00 TRACK 32 AUDIO TITLE "" PERFORMER "" INDEX 01 80:12:00 TRACK 33 AUDIO TITLE "" PERFORMER "" INDEX 01 84:29:00 TRACK 34 AUDIO TITLE "" PERFORMER "" INDEX 01 89:21:00 TRACK 35 AUDIO TITLE "" PERFORMER "" INDEX 01 91:05:00 TRACK 36 AUDIO TITLE "" PERFORMER "" INDEX 01 91:25:00 TRACK 37 AUDIO TITLE "" PERFORMER "" INDEX 01 97:22:00 TRACK 38 AUDIO TITLE "" PERFORMER "" INDEX 01 101:49:00 TRACK 39 AUDIO TITLE "" PERFORMER "" INDEX 01 104:09:00 TRACK 40 AUDIO TITLE "" PERFORMER "" INDEX 01 107:48:00 TRACK 41 AUDIO TITLE "" PERFORMER "" INDEX 01 111:33:00 TRACK 42 AUDIO TITLE "" PERFORMER "" INDEX 01 112:54:00 TRACK 43 AUDIO TITLE "" PERFORMER "" INDEX 01 117:14:00 TRACK 44 AUDIO TITLE "" PERFORMER "" INDEX 01 118:36:00 TRACK 45 AUDIO TITLE "" PERFORMER "" INDEX 01 122:58:00 TRACK 46 AUDIO TITLE "" PERFORMER "" INDEX 01 125:50:00 TRACK 47 AUDIO TITLE "" PERFORMER "" INDEX 01 128:00:00 TRACK 48 AUDIO TITLE "" PERFORMER "" INDEX 01 131:40:00 TRACK 49 AUDIO TITLE "" PERFORMER "" INDEX 01 133:02:00 TRACK 50 AUDIO TITLE "" PERFORMER "" INDEX 01 133:19:00 TRACK 51 AUDIO TITLE "" PERFORMER "" INDEX 01 133:20:00 TRACK 52 AUDIO TITLE "" PERFORMER "" INDEX 01 133:56:00 TRACK 53 AUDIO TITLE "" PERFORMER "" INDEX 01 175:50:00 TRACK 54 AUDIO TITLE "" PERFORMER "" INDEX 01 176:58:00 TRACK 55 AUDIO TITLE "" PERFORMER "" INDEX 01 180:35:00 TRACK 56 AUDIO TITLE "" PERFORMER "" INDEX 01 184:07:00 TRACK 57 AUDIO TITLE "" PERFORMER "" INDEX 01 184:14:00 TRACK 58 AUDIO TITLE "" PERFORMER "" INDEX 01 187:51:00 TRACK 59 AUDIO TITLE "" PERFORMER "" INDEX 01 193:10:00 TRACK 60 AUDIO TITLE "" PERFORMER "" INDEX 01 198:59:00 TRACK 61 AUDIO TITLE "" PERFORMER "" INDEX 01 202:46:00 TRACK 62 AUDIO TITLE "" PERFORMER "" INDEX 01 206:11:00 TRACK 63 AUDIO TITLE "" PERFORMER "" INDEX 01 210:01:00 TRACK 64 AUDIO TITLE "" PERFORMER "" INDEX 01 212:42:00 TRACK 65 AUDIO TITLE "" PERFORMER "" INDEX 01 217:05:00 TRACK 66 AUDIO TITLE "" PERFORMER "" INDEX 01 220:34:00 TRACK 67 AUDIO TITLE "" PERFORMER "" INDEX 01 225:38:00 TRACK 68 AUDIO TITLE "" PERFORMER "" INDEX 01 225:48:00 TRACK 69 AUDIO TITLE "" PERFORMER "" INDEX 01 229:31:00 TRACK 70 AUDIO TITLE "" PERFORMER "" INDEX 01 233:41:00 TRACK 71 AUDIO TITLE "" PERFORMER "" INDEX 01 238:15:00 TRACK 72 AUDIO TITLE "" PERFORMER "" INDEX 01 241:41:00 TRACK 73 AUDIO TITLE "" PERFORMER "" INDEX 01 303:30:00 TRACK 74 AUDIO TITLE "" PERFORMER "" INDEX 01 305:25:00 TRACK 75 AUDIO TITLE "" PERFORMER "" INDEX 01 305:32:00 TRACK 76 AUDIO TITLE "" PERFORMER "" INDEX 01 308:27:00 TRACK 77 AUDIO TITLE "" PERFORMER "" INDEX 01 313:51:00 TRACK 78 AUDIO TITLE "" PERFORMER "" INDEX 01 317:05:00 TRACK 79 AUDIO TITLE "" PERFORMER "" INDEX 01 320:36:00 TRACK 80 AUDIO TITLE "" PERFORMER "" INDEX 01 326:06:00 TRACK 81 AUDIO TITLE "" PERFORMER "" INDEX 01 329:51:00 TRACK 82 AUDIO TITLE "" PERFORMER "" INDEX 01 333:51:00 TRACK 83 AUDIO TITLE "" PERFORMER "" INDEX 01 336:54:00 TRACK 84 AUDIO TITLE "" PERFORMER "" INDEX 01 340:14:00 TRACK 85 AUDIO TITLE "" PERFORMER "" INDEX 01 344:38:00 TRACK 86 AUDIO TITLE "" PERFORMER "" INDEX 01 350:47:00 TRACK 87 AUDIO TITLE "" PERFORMER "" INDEX 01 354:03:00 TRACK 88 AUDIO TITLE "" PERFORMER "" INDEX 01 358:14:00