FILE "2017-07-22_01-00_dyedquartz.mp3" MP3 TRACK 01 AUDIO TITLE "" PERFORMER "" INDEX 01 00:00:00 TRACK 02 AUDIO TITLE "" PERFORMER "" INDEX 01 01:29:00 TRACK 03 AUDIO TITLE "" PERFORMER "" INDEX 01 63:17:00