FILE "2017-08-09_03-03_VinylTastic.mp3" MP3 TRACK 01 AUDIO TITLE "" PERFORMER "" INDEX 01 00:00:00 TRACK 02 AUDIO TITLE "" PERFORMER "" INDEX 01 00:26:00 TRACK 03 AUDIO TITLE "" PERFORMER "" INDEX 01 55:26:00 TRACK 04 AUDIO TITLE "" PERFORMER "" INDEX 01 56:45:00 TRACK 05 AUDIO TITLE "" PERFORMER "" INDEX 01 63:01:00 TRACK 06 AUDIO TITLE "" PERFORMER "" INDEX 01 67:45:00 TRACK 07 AUDIO TITLE "" PERFORMER "" INDEX 01 70:49:00 TRACK 08 AUDIO TITLE "" PERFORMER "" INDEX 01 75:34:00 TRACK 09 AUDIO TITLE "" PERFORMER "" INDEX 01 80:50:00 TRACK 10 AUDIO TITLE "" PERFORMER "" INDEX 01 86:30:00 TRACK 11 AUDIO TITLE "" PERFORMER "" INDEX 01 90:28:00 TRACK 12 AUDIO TITLE "" PERFORMER "" INDEX 01 94:54:00 TRACK 13 AUDIO TITLE "" PERFORMER "" INDEX 01 98:12:00 TRACK 14 AUDIO TITLE "" PERFORMER "" INDEX 01 103:41:00 TRACK 15 AUDIO TITLE "" PERFORMER "" INDEX 01 106:17:00 TRACK 16 AUDIO TITLE "" PERFORMER "" INDEX 01 111:08:00 TRACK 17 AUDIO TITLE "" PERFORMER "" INDEX 01 114:30:00 TRACK 18 AUDIO TITLE "" PERFORMER "" INDEX 01 118:49:00 TRACK 19 AUDIO TITLE "" PERFORMER "" INDEX 01 122:02:00 TRACK 20 AUDIO TITLE "" PERFORMER "" INDEX 01 126:40:00 TRACK 21 AUDIO TITLE "" PERFORMER "" INDEX 01 132:22:00 TRACK 22 AUDIO TITLE "" PERFORMER "" INDEX 01 134:49:00 TRACK 23 AUDIO TITLE "" PERFORMER "" INDEX 01 139:00:00 TRACK 24 AUDIO TITLE "" PERFORMER "" INDEX 01 145:34:00 TRACK 25 AUDIO TITLE "" PERFORMER "" INDEX 01 150:34:00 TRACK 26 AUDIO TITLE "" PERFORMER "" INDEX 01 154:14:00 TRACK 27 AUDIO TITLE "" PERFORMER "" INDEX 01 160:47:00 TRACK 28 AUDIO TITLE "" PERFORMER "" INDEX 01 165:26:00 TRACK 29 AUDIO TITLE "" PERFORMER "" INDEX 01 170:32:00 TRACK 30 AUDIO TITLE "" PERFORMER "" INDEX 01 174:23:00 TRACK 31 AUDIO TITLE "" PERFORMER "" INDEX 01 178:38:00 TRACK 32 AUDIO TITLE "" PERFORMER "" INDEX 01 182:25:00 TRACK 33 AUDIO TITLE "" PERFORMER "" INDEX 01 182:34:00 TRACK 34 AUDIO TITLE "" PERFORMER "" INDEX 01 186:11:00 TRACK 35 AUDIO TITLE "" PERFORMER "" INDEX 01 189:33:00 TRACK 36 AUDIO TITLE "" PERFORMER "" INDEX 01 193:51:00 TRACK 37 AUDIO TITLE "" PERFORMER "" INDEX 01 198:15:00 TRACK 38 AUDIO TITLE "" PERFORMER "" INDEX 01 203:53:00 TRACK 39 AUDIO TITLE "" PERFORMER "" INDEX 01 207:12:00 TRACK 40 AUDIO TITLE "" PERFORMER "" INDEX 01 210:43:00 TRACK 41 AUDIO TITLE "" PERFORMER "" INDEX 01 214:35:00 TRACK 42 AUDIO TITLE "" PERFORMER "" INDEX 01 218:38:00 TRACK 43 AUDIO TITLE "" PERFORMER "" INDEX 01 221:45:00 TRACK 44 AUDIO TITLE "" PERFORMER "" INDEX 01 221:52:00 TRACK 45 AUDIO TITLE "" PERFORMER "" INDEX 01 224:07:00 TRACK 46 AUDIO TITLE "" PERFORMER "" INDEX 01 228:09:00 TRACK 47 AUDIO TITLE "" PERFORMER "" INDEX 01 233:26:00 TRACK 48 AUDIO TITLE "" PERFORMER "" INDEX 01 238:19:00 TRACK 49 AUDIO TITLE "" PERFORMER "" INDEX 01 242:05:00 TRACK 50 AUDIO TITLE "" PERFORMER "" INDEX 01 245:12:00 TRACK 51 AUDIO TITLE "" PERFORMER "" INDEX 01 249:22:00 TRACK 52 AUDIO TITLE "" PERFORMER "" INDEX 01 252:39:00 TRACK 53 AUDIO TITLE "" PERFORMER "" INDEX 01 255:25:00 TRACK 54 AUDIO TITLE "" PERFORMER "" INDEX 01 259:10:00 TRACK 55 AUDIO TITLE "" PERFORMER "" INDEX 01 259:21:00 TRACK 56 AUDIO TITLE "" PERFORMER "" INDEX 01 263:38:00 TRACK 57 AUDIO TITLE "" PERFORMER "" INDEX 01 267:34:00 TRACK 58 AUDIO TITLE "" PERFORMER "" INDEX 01 271:06:00 TRACK 59 AUDIO TITLE "" PERFORMER "" INDEX 01 273:15:00 TRACK 60 AUDIO TITLE "" PERFORMER "" INDEX 01 277:28:00 TRACK 61 AUDIO TITLE "" PERFORMER "" INDEX 01 280:43:00 TRACK 62 AUDIO TITLE "" PERFORMER "" INDEX 01 284:20:00 TRACK 63 AUDIO TITLE "" PERFORMER "" INDEX 01 290:09:00 TRACK 64 AUDIO TITLE "" PERFORMER "" INDEX 01 294:49:00 TRACK 65 AUDIO TITLE "" PERFORMER "" INDEX 01 297:42:00 TRACK 66 AUDIO TITLE "" PERFORMER "" INDEX 01 297:49:00 TRACK 67 AUDIO TITLE "" PERFORMER "" INDEX 01 302:32:00 TRACK 68 AUDIO TITLE "" PERFORMER "" INDEX 01 305:45:00 TRACK 69 AUDIO TITLE "" PERFORMER "" INDEX 01 309:21:00 TRACK 70 AUDIO TITLE "" PERFORMER "" INDEX 01 313:12:00 TRACK 71 AUDIO TITLE "" PERFORMER "" INDEX 01 318:46:00 TRACK 72 AUDIO TITLE "" PERFORMER "" INDEX 01 321:57:00 TRACK 73 AUDIO TITLE "" PERFORMER "" INDEX 01 325:49:00 TRACK 74 AUDIO TITLE "" PERFORMER "" INDEX 01 329:09:00 TRACK 75 AUDIO TITLE "" PERFORMER "" INDEX 01 331:41:00 TRACK 76 AUDIO TITLE "" PERFORMER "" INDEX 01 335:21:00 TRACK 77 AUDIO TITLE "" PERFORMER "" INDEX 01 335:31:00 TRACK 78 AUDIO TITLE "" PERFORMER "" INDEX 01 337:46:00 TRACK 79 AUDIO TITLE "" PERFORMER "" INDEX 01 343:35:00 TRACK 80 AUDIO TITLE "" PERFORMER "" INDEX 01 348:23:00 TRACK 81 AUDIO TITLE "" PERFORMER "" INDEX 01 351:44:00 TRACK 82 AUDIO TITLE "" PERFORMER "" INDEX 01 357:26:00