FILE "2017-09-16_00-03_ProgressiveElement.mp3" MP3 TRACK 01 AUDIO TITLE "" PERFORMER "" INDEX 01 00:00:00 TRACK 02 AUDIO TITLE "" PERFORMER "" INDEX 01 02:02:00 TRACK 03 AUDIO TITLE "" PERFORMER "" INDEX 01 05:30:00 TRACK 04 AUDIO TITLE "" PERFORMER "" INDEX 01 07:32:00 TRACK 05 AUDIO TITLE "" PERFORMER "" INDEX 01 09:03:00 TRACK 06 AUDIO TITLE "" PERFORMER "" INDEX 01 11:37:00 TRACK 07 AUDIO TITLE "" PERFORMER "" INDEX 01 14:36:00 TRACK 08 AUDIO TITLE "" PERFORMER "" INDEX 01 16:40:00 TRACK 09 AUDIO TITLE "" PERFORMER "" INDEX 01 19:37:00 TRACK 10 AUDIO TITLE "" PERFORMER "" INDEX 01 22:52:00 TRACK 11 AUDIO TITLE "" PERFORMER "" INDEX 01 25:57:00 TRACK 12 AUDIO TITLE "" PERFORMER "" INDEX 01 28:44:00 TRACK 13 AUDIO TITLE "" PERFORMER "" INDEX 01 32:34:00 TRACK 14 AUDIO TITLE "" PERFORMER "" INDEX 01 34:24:00 TRACK 15 AUDIO TITLE "" PERFORMER "" INDEX 01 35:54:00 TRACK 16 AUDIO TITLE "" PERFORMER "" INDEX 01 39:05:00 TRACK 17 AUDIO TITLE "" PERFORMER "" INDEX 01 40:13:00 TRACK 18 AUDIO TITLE "" PERFORMER "" INDEX 01 43:02:00 TRACK 19 AUDIO TITLE "" PERFORMER "" INDEX 01 45:15:00 TRACK 20 AUDIO TITLE "" PERFORMER "" INDEX 01 48:05:00 TRACK 21 AUDIO TITLE "" PERFORMER "" INDEX 01 51:29:00 TRACK 22 AUDIO TITLE "" PERFORMER "" INDEX 01 54:35:00 TRACK 23 AUDIO TITLE "" PERFORMER "" INDEX 01 56:01:00 TRACK 24 AUDIO TITLE "" PERFORMER "" INDEX 01 59:53:00 TRACK 25 AUDIO TITLE "" PERFORMER "" INDEX 01 63:00:00 TRACK 26 AUDIO TITLE "" PERFORMER "" INDEX 01 65:16:00 TRACK 27 AUDIO TITLE "" PERFORMER "" INDEX 01 71:38:00 TRACK 28 AUDIO TITLE "" PERFORMER "" INDEX 01 75:39:00 TRACK 29 AUDIO TITLE "" PERFORMER "" INDEX 01 81:58:00 TRACK 30 AUDIO TITLE "" PERFORMER "" INDEX 01 87:28:00 TRACK 31 AUDIO TITLE "" PERFORMER "" INDEX 01 90:34:00 TRACK 32 AUDIO TITLE "" PERFORMER "" INDEX 01 93:44:00 TRACK 33 AUDIO TITLE "" PERFORMER "" INDEX 01 99:57:00 TRACK 34 AUDIO TITLE "" PERFORMER "" INDEX 01 105:18:00 TRACK 35 AUDIO TITLE "" PERFORMER "" INDEX 01 107:35:00 TRACK 36 AUDIO TITLE "" PERFORMER "" INDEX 01 111:43:00 TRACK 37 AUDIO TITLE "" PERFORMER "" INDEX 01 115:59:00 TRACK 38 AUDIO TITLE "" PERFORMER "" INDEX 01 119:32:00 TRACK 39 AUDIO TITLE "" PERFORMER "" INDEX 01 123:08:00 TRACK 40 AUDIO TITLE "" PERFORMER "" INDEX 01 127:28:00 TRACK 41 AUDIO TITLE "" PERFORMER "" INDEX 01 131:08:00 TRACK 42 AUDIO TITLE "" PERFORMER "" INDEX 01 135:35:00 TRACK 43 AUDIO TITLE "" PERFORMER "" INDEX 01 139:54:00 TRACK 44 AUDIO TITLE "" PERFORMER "" INDEX 01 143:52:00 TRACK 45 AUDIO TITLE "" PERFORMER "" INDEX 01 147:51:00 TRACK 46 AUDIO TITLE "" PERFORMER "" INDEX 01 151:58:00 TRACK 47 AUDIO TITLE "" PERFORMER "" INDEX 01 156:19:00 TRACK 48 AUDIO TITLE "" PERFORMER "" INDEX 01 160:38:00 TRACK 49 AUDIO TITLE "" PERFORMER "" INDEX 01 163:52:00 TRACK 50 AUDIO TITLE "" PERFORMER "" INDEX 01 166:45:00 TRACK 51 AUDIO TITLE "" PERFORMER "" INDEX 01 170:55:00 TRACK 52 AUDIO TITLE "" PERFORMER "" INDEX 01 176:31:00 TRACK 53 AUDIO TITLE "" PERFORMER "" INDEX 01 180:12:00 TRACK 54 AUDIO TITLE "" PERFORMER "" INDEX 01 184:10:00 TRACK 55 AUDIO TITLE "" PERFORMER "" INDEX 01 187:51:00 TRACK 56 AUDIO TITLE "" PERFORMER "" INDEX 01 187:59:00 TRACK 57 AUDIO TITLE "" PERFORMER "" INDEX 01 190:23:00 TRACK 58 AUDIO TITLE "" PERFORMER "" INDEX 01 193:38:00 TRACK 59 AUDIO TITLE "" PERFORMER "" INDEX 01 198:04:00 TRACK 60 AUDIO TITLE "" PERFORMER "" INDEX 01 203:24:00 TRACK 61 AUDIO TITLE "" PERFORMER "" INDEX 01 207:18:00 TRACK 62 AUDIO TITLE "" PERFORMER "" INDEX 01 211:55:00 TRACK 63 AUDIO TITLE "" PERFORMER "" INDEX 01 215:50:00 TRACK 64 AUDIO TITLE "" PERFORMER "" INDEX 01 220:08:00 TRACK 65 AUDIO TITLE "" PERFORMER "" INDEX 01 223:32:00 TRACK 66 AUDIO TITLE "" PERFORMER "" INDEX 01 227:57:00 TRACK 67 AUDIO TITLE "" PERFORMER "" INDEX 01 228:03:00 TRACK 68 AUDIO TITLE "" PERFORMER "" INDEX 01 231:41:00 TRACK 69 AUDIO TITLE "" PERFORMER "" INDEX 01 233:28:00 TRACK 70 AUDIO TITLE "" PERFORMER "" INDEX 01 239:32:00 TRACK 71 AUDIO TITLE "" PERFORMER "" INDEX 01 241:17:00 TRACK 72 AUDIO TITLE "" PERFORMER "" INDEX 01 241:22:00 TRACK 73 AUDIO TITLE "" PERFORMER "" INDEX 01 246:27:00 TRACK 74 AUDIO TITLE "" PERFORMER "" INDEX 01 248:19:00 TRACK 75 AUDIO TITLE "" PERFORMER "" INDEX 01 251:24:00 TRACK 76 AUDIO TITLE "" PERFORMER "" INDEX 01 256:57:00 TRACK 77 AUDIO TITLE "" PERFORMER "" INDEX 01 262:26:00 TRACK 78 AUDIO TITLE "" PERFORMER "" INDEX 01 264:31:00 TRACK 79 AUDIO TITLE "" PERFORMER "" INDEX 01 274:12:00 TRACK 80 AUDIO TITLE "" PERFORMER "" INDEX 01 279:07:00 TRACK 81 AUDIO TITLE "" PERFORMER "" INDEX 01 285:12:00 TRACK 82 AUDIO TITLE "" PERFORMER "" INDEX 01 291:16:00 TRACK 83 AUDIO TITLE "" PERFORMER "" INDEX 01 295:50:00 TRACK 84 AUDIO TITLE "" PERFORMER "" INDEX 01 298:08:00 TRACK 85 AUDIO TITLE "" PERFORMER "" INDEX 01 301:24:00 TRACK 86 AUDIO TITLE "" PERFORMER "" INDEX 01 307:41:00 TRACK 87 AUDIO TITLE "" PERFORMER "" INDEX 01 311:15:00 TRACK 88 AUDIO TITLE "" PERFORMER "" INDEX 01 313:10:00 TRACK 89 AUDIO TITLE "" PERFORMER "" INDEX 01 319:04:00 TRACK 90 AUDIO TITLE "" PERFORMER "" INDEX 01 323:43:00 TRACK 91 AUDIO TITLE "" PERFORMER "" INDEX 01 328:32:00 TRACK 92 AUDIO TITLE "" PERFORMER "" INDEX 01 333:51:00 TRACK 93 AUDIO TITLE "" PERFORMER "" INDEX 01 339:41:00 TRACK 94 AUDIO TITLE "" PERFORMER "" INDEX 01 345:09:00 TRACK 95 AUDIO TITLE "" PERFORMER "" INDEX 01 348:19:00 TRACK 96 AUDIO TITLE "" PERFORMER "" INDEX 01 352:06:00 TRACK 97 AUDIO TITLE "" PERFORMER "" INDEX 01 355:15:00 TRACK 98 AUDIO TITLE "" PERFORMER "" INDEX 01 359:28:00