FILE "2017-09-25_23-59_additivesubtractive.mp3" MP3 TRACK 01 AUDIO TITLE "" PERFORMER "" INDEX 01 00:00:00 TRACK 02 AUDIO TITLE "" PERFORMER "" INDEX 01 00:00:00 TRACK 03 AUDIO TITLE "" PERFORMER "" INDEX 01 00:42:00 TRACK 04 AUDIO TITLE "" PERFORMER "" INDEX 01 58:18:00 TRACK 05 AUDIO TITLE "" PERFORMER "" INDEX 01 58:50:00 TRACK 06 AUDIO TITLE "" PERFORMER "" INDEX 01 61:53:00 TRACK 07 AUDIO TITLE "" PERFORMER "" INDEX 01 65:11:00 TRACK 08 AUDIO TITLE "" PERFORMER "" INDEX 01 70:22:00 TRACK 09 AUDIO TITLE "" PERFORMER "" INDEX 01 74:35:00 TRACK 10 AUDIO TITLE "" PERFORMER "" INDEX 01 80:05:00 TRACK 11 AUDIO TITLE "" PERFORMER "" INDEX 01 83:38:00 TRACK 12 AUDIO TITLE "" PERFORMER "" INDEX 01 90:55:00 TRACK 13 AUDIO TITLE "" PERFORMER "" INDEX 01 95:06:00 TRACK 14 AUDIO TITLE "" PERFORMER "" INDEX 01 99:52:00 TRACK 15 AUDIO TITLE "" PERFORMER "" INDEX 01 104:38:00 TRACK 16 AUDIO TITLE "" PERFORMER "" INDEX 01 110:40:00 TRACK 17 AUDIO TITLE "" PERFORMER "" INDEX 01 115:39:00 TRACK 18 AUDIO TITLE "" PERFORMER "" INDEX 01 119:03:00 TRACK 19 AUDIO TITLE "" PERFORMER "" INDEX 01 121:58:00 TRACK 20 AUDIO TITLE "" PERFORMER "" INDEX 01 125:57:00 TRACK 21 AUDIO TITLE "" PERFORMER "" INDEX 01 129:59:00 TRACK 22 AUDIO TITLE "" PERFORMER "" INDEX 01 133:26:00 TRACK 23 AUDIO TITLE "" PERFORMER "" INDEX 01 137:18:00 TRACK 24 AUDIO TITLE "" PERFORMER "" INDEX 01 141:00:00 TRACK 25 AUDIO TITLE "" PERFORMER "" INDEX 01 145:37:00 TRACK 26 AUDIO TITLE "" PERFORMER "" INDEX 01 148:54:00 TRACK 27 AUDIO TITLE "" PERFORMER "" INDEX 01 152:39:00 TRACK 28 AUDIO TITLE "" PERFORMER "" INDEX 01 158:06:00 TRACK 29 AUDIO TITLE "" PERFORMER "" INDEX 01 161:04:00 TRACK 30 AUDIO TITLE "" PERFORMER "" INDEX 01 165:13:00 TRACK 31 AUDIO TITLE "" PERFORMER "" INDEX 01 171:01:00 TRACK 32 AUDIO TITLE "" PERFORMER "" INDEX 01 174:12:00 TRACK 33 AUDIO TITLE "" PERFORMER "" INDEX 01 178:48:00 TRACK 34 AUDIO TITLE "" PERFORMER "" INDEX 01 183:51:00 TRACK 35 AUDIO TITLE "" PERFORMER "" INDEX 01 187:28:00 TRACK 36 AUDIO TITLE "" PERFORMER "" INDEX 01 190:14:00 TRACK 37 AUDIO TITLE "" PERFORMER "" INDEX 01 190:17:00 TRACK 38 AUDIO TITLE "" PERFORMER "" INDEX 01 191:33:00 TRACK 39 AUDIO TITLE "" PERFORMER "" INDEX 01 192:23:00 TRACK 40 AUDIO TITLE "" PERFORMER "" INDEX 01 195:14:00 TRACK 41 AUDIO TITLE "" PERFORMER "" INDEX 01 196:01:00 TRACK 42 AUDIO TITLE "" PERFORMER "" INDEX 01 201:27:00 TRACK 43 AUDIO TITLE "" PERFORMER "" INDEX 01 206:15:00 TRACK 44 AUDIO TITLE "" PERFORMER "" INDEX 01 209:53:00 TRACK 45 AUDIO TITLE "" PERFORMER "" INDEX 01 214:11:00 TRACK 46 AUDIO TITLE "" PERFORMER "" INDEX 01 220:06:00 TRACK 47 AUDIO TITLE "" PERFORMER "" INDEX 01 223:40:00 TRACK 48 AUDIO TITLE "" PERFORMER "" INDEX 01 227:09:00 TRACK 49 AUDIO TITLE "" PERFORMER "" INDEX 01 231:41:00 TRACK 50 AUDIO TITLE "" PERFORMER "" INDEX 01 236:28:00 TRACK 51 AUDIO TITLE "" PERFORMER "" INDEX 01 241:24:00 TRACK 52 AUDIO TITLE "" PERFORMER "" INDEX 01 245:36:00 TRACK 53 AUDIO TITLE "" PERFORMER "" INDEX 01 248:27:00 TRACK 54 AUDIO TITLE "" PERFORMER "" INDEX 01 252:23:00 TRACK 55 AUDIO TITLE "" PERFORMER "" INDEX 01 256:58:00 TRACK 56 AUDIO TITLE "" PERFORMER "" INDEX 01 260:16:00 TRACK 57 AUDIO TITLE "" PERFORMER "" INDEX 01 263:06:00 TRACK 58 AUDIO TITLE "" PERFORMER "" INDEX 01 266:32:00 TRACK 59 AUDIO TITLE "" PERFORMER "" INDEX 01 271:27:00 TRACK 60 AUDIO TITLE "" PERFORMER "" INDEX 01 275:28:00 TRACK 61 AUDIO TITLE "" PERFORMER "" INDEX 01 280:14:00 TRACK 62 AUDIO TITLE "" PERFORMER "" INDEX 01 283:42:00 TRACK 63 AUDIO TITLE "" PERFORMER "" INDEX 01 289:19:00 TRACK 64 AUDIO TITLE "" PERFORMER "" INDEX 01 292:32:00 TRACK 65 AUDIO TITLE "" PERFORMER "" INDEX 01 297:06:00 TRACK 66 AUDIO TITLE "" PERFORMER "" INDEX 01 301:57:00 TRACK 67 AUDIO TITLE "" PERFORMER "" INDEX 01 306:38:00 TRACK 68 AUDIO TITLE "" PERFORMER "" INDEX 01 309:48:00 TRACK 69 AUDIO TITLE "" PERFORMER "" INDEX 01 313:20:00 TRACK 70 AUDIO TITLE "" PERFORMER "" INDEX 01 317:17:00 TRACK 71 AUDIO TITLE "" PERFORMER "" INDEX 01 322:14:00 TRACK 72 AUDIO TITLE "" PERFORMER "" INDEX 01 325:23:00 TRACK 73 AUDIO TITLE "" PERFORMER "" INDEX 01 329:20:00 TRACK 74 AUDIO TITLE "" PERFORMER "" INDEX 01 333:35:00 TRACK 75 AUDIO TITLE "" PERFORMER "" INDEX 01 337:07:00 TRACK 76 AUDIO TITLE "" PERFORMER "" INDEX 01 342:42:00 TRACK 77 AUDIO TITLE "" PERFORMER "" INDEX 01 346:37:00 TRACK 78 AUDIO TITLE "" PERFORMER "" INDEX 01 351:35:00 TRACK 79 AUDIO TITLE "" PERFORMER "" INDEX 01 355:53:00